<?xml version="1.0" standalone="no"?>
  <!DOCTYPE svg PUBLIC "-//W3C//DTD SVG 1.1//EN" "http://www.w3.org/Graphics/SVG/1.1/DTD/svg11.dtd" >
  <svg>
  <metadata>
  Created by font-carrier
  </metadata>
  <defs>
  <font id="c-icon" horiz-adv-x="1024" vert-adv-y="1024" >
    <font-face
      
      font-family="c-icon"
      
      font-weight="400"
      
      font-stretch="normal"
      
      units-per-em="1024"
      
      ascent="812"
      
      descent="-212"
      
    />
      <missing-glyph />

      
      <glyph glyph-name="x" unicode="&#x78;" horiz-adv-x="100"
        d="M20 20 L50 20 L50 -20 Z" />
      

      
      <glyph glyph-name="bind" unicode="&#xE001;" d="M820.2733 444.683C888.2698 384.0425 926.72 325.344 926.72 325.344 926.72 325.344 805.0688 23.52 512 23.52 403.0462 23.52 317.7844 65.2357 253.6574 117.6499L372.1249 185.9947C406.0934 147.1674 456.4037 123.1373 512 124.4352L521.8755 124.4706C616.7501 127.3757 693.8895 203.9746 696.32 300 695.7353 323.1011 690.8268 345.0779 682.3877 365.1747ZM512 576.48C615.218 576.48 703.8508 533.7439 772.367 483.5305L651.8751 414.0053C617.9066 452.8326 567.5963 476.8627 512 475.5648 412.6586 477.8839 330.1943 399.3366 327.68 300 328.2647 276.8989 333.1732 254.9221 341.6123 234.8253L209.408 158.5618C132.1142 238.9183 97.28 325.344 97.28 325.344 97.28 325.344 261.7856 576.48 512 576.48ZM602.2297 318.8541C603.495 312.7679 604.16 306.4616 604.16 300 604.16 249.1014 562.8986 207.84 512 207.84 488.4153 207.84 466.8998 216.6992 450.5997 231.2713ZM512 392.16C535.5847 392.16 557.1002 383.3008 573.4003 368.7287L421.7703 281.1459C420.505 287.2321 419.84 293.5384 419.84 300 419.84 350.8986 461.1014 392.16 512 392.16ZM817.9814 576.4246L846.7814 526.5415 148.4185 123.3415 119.6185 173.2246Z"  horiz-adv-x="1024" vert-adv-y="1024"  />

      
      <glyph glyph-name="eye" unicode="&#xE002;" d="M512 576.48C261.7856 576.48 97.28 325.344 97.28 325.344 97.28 325.344 218.9312 23.52 512 23.52 805.0688 23.52 926.72 325.344 926.72 325.344 926.72 325.344 762.2144 576.48 512 576.48ZM512 124.4352C412.6586 122.1161 330.1943 200.6634 327.68 300 330.1943 399.3366 412.6586 477.8839 512 475.5648 611.3414 477.8839 693.8057 399.3366 696.32 300 693.8057 200.6634 611.3414 122.1161 512 124.4352L512 124.4352ZM512 392.16C461.1014 392.16 419.84 350.8986 419.84 300 419.84 249.1014 461.1014 207.84 512 207.84 562.8986 207.84 604.16 249.1014 604.16 300 604.16 350.8986 562.8986 392.16 512 392.16L512 392.16Z"  horiz-adv-x="1024" vert-adv-y="1024"  />

      
      <glyph glyph-name="warning" unicode="&#xE003;" d="M512 812C229.2288 812 0 582.7729 0 299.9987 0 117.082 97.5895-51.9374 256-143.4062 414.4209-234.8646 609.5895-234.8646 768-143.4062 926.4209-51.9479 1024 117.0715 1024 299.9987 1024.0105 582.7624 794.7712 812 512 812ZM512 15.5489C480.5856 15.5489 455.1111 41.0185 455.1111 72.4367 455.1111 92.7538 465.9556 111.5419 483.5556 121.7005 501.1556 131.859 522.8444 131.859 540.4444 121.7005 558.0444 111.5419 568.8889 92.7538 568.8889 72.4367 568.8889 41.029 543.4248 15.5489 512 15.5489L512 15.5489ZM568.8889 243.1108C568.8889 208.9802 546.1333 186.2229 512 186.2229 477.8667 186.2229 455.1111 208.9802 455.1111 243.1108L455.1111 527.5502C455.1111 561.6808 477.8667 584.438 512 584.438 546.1333 584.438 568.8889 561.6808 568.8889 527.5502L568.8889 243.1108Z"  horiz-adv-x="1024" vert-adv-y="1024"  />

      
      <glyph glyph-name="success" unicode="&#xE004;" d="M512-212C229.248-212 0 17.248 0 300 0 582.752 229.248 812 512 812 794.752 812 1024 582.752 1024 300 1024 17.248 794.752-212 512-212ZM397.824 98.9547C407.8263 88.9497 421.394 83.3287 435.5413 83.3287 449.6886 83.3287 463.2563 88.9497 473.2587 98.9547L796.5867 422.2827C810.0618 435.7578 815.3244 455.3982 810.3922 473.8055 805.4599 492.2128 791.0822 506.5906 772.6748 511.5228 754.2675 516.4551 734.6271 511.1924 721.152 497.7173L433.2373 214.4107 304.384 343.264C290.9089 356.7391 271.2685 362.0017 252.8612 357.0695 234.4538 352.1373 220.0761 337.7595 215.1438 319.3522 210.2116 300.9448 215.4742 281.3044 228.9493 267.8293L397.824 98.9547Z"  horiz-adv-x="1024" vert-adv-y="1024"  />

      
      <glyph glyph-name="right-arrow" unicode="&#xE006;" d="M608.7174-2.4258L878.4258 267.2825C897.9295 286.7862 897.9295 319.1066 878.4258 338.6103L608.7174 608.3187C589.2137 627.8224 556.8933 627.8224 537.3896 608.3187 517.8859 588.815 517.8859 556.4945 537.3896 536.9908L719.6099 354.7706 181.6561 354.7706C153.7936 354.7706 130.9464 331.9234 130.9464 304.0609 130.9464 276.1985 153.7936 253.3513 181.6561 253.3513L721.8389 253.3513 537.3896 68.902C517.8859 49.3983 517.8859 17.0779 537.3896-2.4258 556.8933-21.9295 589.2137-21.9295 608.7174-2.4258Z"  horiz-adv-x="1024" vert-adv-y="1024"  />

      
      <glyph glyph-name="down-outlined" unicode="&#xE007;" d="M853.4863 492C864.8369 491.9912 875.69 487.3399 883.5244 479.1265 900.1585 461.6774 900.1585 434.2409 883.5244 416.7917 872.435 405.1589 758.6063 286.9637 542.0381 62.2061 534.2309 53.9453 523.3663 49.2644 512 49.2644L512 49.2644C500.6337 49.2644 489.7691 53.9453 481.9619 62.2061L481.9619 62.2061 140.4756 416.7917C123.8415 434.2409 123.8415 461.6774 140.4756 479.1265 148.31 487.3399 159.1631 491.9912 170.5137 492 181.8644 491.9912 192.7174 487.3399 200.5519 479.1265L200.5519 479.1265 512 155.744 823.4481 479.1265C829.7157 485.6972 837.9151 489.9882 846.7558 491.4463Z"  horiz-adv-x="1024" vert-adv-y="1024"  />

      
      <glyph glyph-name="right-outlined" unicode="&#xE00B;" d="M320 641.4863C320.0088 652.8369 324.6601 663.69 332.8735 671.5244 350.3226 688.1585 377.7591 688.1585 395.2083 671.5244 406.8411 660.435 525.0363 546.6063 749.7939 330.0381 758.0547 322.2309 762.7356 311.3663 762.7356 300L762.7356 300C762.7356 288.6337 758.0547 277.7691 749.7939 269.9619L749.7939 269.9619 395.2083-71.5244C377.7591-88.1585 350.3226-88.1585 332.8735-71.5244 324.6601-63.69 320.0088-52.8369 320-41.4863 320.0088-30.1356 324.6601-19.2826 332.8735-11.4481L332.8735-11.4481 656.256 300 332.8735 611.4481C326.3028 617.7157 322.0118 625.9151 320.5537 634.7558Z"  horiz-adv-x="1024" vert-adv-y="1024"  />

      
      <glyph glyph-name="logo" unicode="&#xE00D;" d="M512.0021 812C794.1257 812 1024.0042 582.1215 1024.0042 299.9979 1024.0042 17.8743 796.2155-212.0042 512.0021-212.0042 229.8785-212.0042 0 17.8743 0 299.9979 0 582.1215 229.8785 812 512.0021 812ZM3765.1458 445.625L3872.7708 118.625 3981.1458 445.625 4055.7708 445.625 3992.3958 269.375 3992.3958 269.375 3967.2553 199.1601 3967.2553 199.1601 3945.2884 139.0609 3945.2884 139.0609 3930.8958 100.625 3930.8958 100.625 3916.2219 62.5579 3916.2219 62.5579 3902.7219 28.574 3902.7219 28.574 3890.3958-1.3268 3890.3958-1.3268 3879.2436-27.1444 3879.2436-27.1444 3872.4611-42.0877 3872.4611-42.0877 3866.2002-55.2162 3866.2002-55.2162 3860.4611-66.53 3860.4611-66.53 3855.2436-76.0291 3855.2436-76.0291 3850.548-83.7134C3849.8089-84.8429 3849.0915-85.8967 3848.3958-86.875 3832.3958-109.375 3804.8958-120.625 3765.8959-120.625 3756.3958-120.625 3749.0833-120.25 3743.9583-119.5L3739.8919-118.8203 3739.8919-118.8203 3730.4232-116.7578 3730.4232-116.7578 3725.0208-115.375 3725.0208-53.875 3731.6809-55.675 3742.6608-58.375C3745.8008-59.075 3748.4208-59.575 3750.5208-59.875 3755.7708-60.625 3760.3958-61 3764.3958-61 3776.8958-61 3786.0833-58.9375 3791.9583-54.8125 3797.8333-50.6875 3802.7708-45.625 3806.7708-39.625L3808.0856-37.0694 3808.0856-37.0694 3813.6042-24.625 3813.6042-24.625 3831.4749 18.1862 3831.4749 18.1862 3837.1458 32.375 3688.6458 445.625 3765.1458 445.625ZM512.0021 701.2404C290.4828 701.2404 112.8495 521.5172 112.8495 302.0877 112.8495 80.5684 292.5726-97.0649 512.0021-97.0649 731.4316-97.0649 911.1547 82.6582 911.1547 302.0877 913.2445 521.5172 733.5214 701.2404 512.0021 701.2404ZM568.4226 598.8462L568.4226 511.0744C620.6677 500.6254 668.7332 475.5478 702.1701 431.6619 704.2599 429.5721 704.2599 427.4823 706.3497 425.3924 709.4844 422.2577 711.4436 420.2985 713.1089 417.7516L714.7089 414.9434 618.5779 360.6085 616.4881 362.6983C614.3983 364.7881 614.3983 366.8779 612.3085 368.9677 580.9615 406.5842 526.6266 417.0332 480.6508 396.1352 426.3159 368.9677 403.3281 306.2736 430.4955 254.0285L431.5404 252.7224C432.0629 251.9387 432.5853 250.8938 432.5853 249.8489 451.3936 216.412 489.01 195.514 528.7163 195.514 561.8746 195.514 595.0328 211.898 612.8992 241.268L616.4881 247.7591 710.5293 193.4242C689.6313 164.1669 664.5536 139.0892 633.2066 122.3708 616.4881 114.0116 598.4322 106.9898 580.1088 102.3756L566.3328 99.383 566.3328 11.6112 453.4834 11.6112 453.4834 107.7422C405.4179 122.3708 363.6218 155.8077 336.4544 201.7834L335.4095 203.0895C334.887 203.8732 334.3645 204.9181 334.3645 205.963 286.2991 297.9144 311.3767 408.674 394.9689 471.3681 410.6424 483.5587 427.7672 492.8467 445.1338 499.2322L455.5732 502.7152 455.5732 598.8462 568.4226 598.8462ZM2034.6875 457.25C2086.4375 457.25 2130.1875 440 2165.9375 405.5 2201.6875 371 2219.5625 320.25 2219.5625 253.25 2219.5625 188.5 2203.8125 135 2172.3125 92.75 2140.8125 50.5 2091.9375 29.375 2025.6875 29.375 1970.4375 29.375 1926.5625 48.0625 1894.0625 85.4375 1861.5625 122.8125 1845.3125 173 1845.3125 236 1845.3125 303.5 1862.4375 357.25 1896.6875 397.25 1930.9375 437.25 1976.9375 457.25 2034.6875 457.25ZM1580.5208 609.875C1650.2708 609.875 1704.3958 591.5 1742.8958 554.75 1778.4343 520.8269 1799.381 482.6435 1805.7361 440.1997L1807.0208 429.5 1734.2708 429.5 1731.5502 439.9288C1722.6515 470.5512 1707.1209 495.2 1684.9583 513.875 1660.3333 534.625 1625.7708 545 1581.2708 545 1527.0208 545 1483.2083 525.9375 1449.8333 487.8125 1416.4583 449.6875 1399.7708 391.25 1399.7708 312.5 1399.7708 248 1414.8333 195.6875 1444.9583 155.5625 1475.0833 115.4375 1520.0208 95.375 1579.7708 95.375 1634.7708 95.375 1676.6458 116.5 1705.3958 158.75 1718.7396 178.2188 1729.1165 203.0469 1736.5267 233.2344L1739.5209 246.5 1812.2708 246.5 1810.5046 233.2818C1802.3744 181.0747 1781.4631 136.8558 1747.7708 100.625 1704.0208 53.375 1645.0208 29.75 1570.7708 29.75 1506.7708 29.75 1453.0208 49.125 1409.5209 87.875 1352.2708 139.125 1323.6458 218.25 1323.6458 325.25 1323.6458 406.5 1345.1458 473.125 1388.1458 525.125 1434.6458 581.625 1498.7708 609.875 1580.5208 609.875ZM3481.9792 455.375C3529.2292 455.375 3567.6042 446.375 3597.1042 428.375 3624.1041 411.7596 3638.6426 386.6235 3640.7195 352.9667L3640.9792 344.375 3640.9792 113 3641.2487 108.0078C3641.7878 103.2734 3643.1354 99.3125 3645.2916 96.125 3648.1667 91.875 3654.2292 89.75 3663.4792 89.75 3666.4791 89.75 3669.8542 89.9375 3673.6042 90.3125L3679.4167 91.0156 3679.4167 91.0156 3685.6042 92 3685.6042 42.125 3679.6042 40.46C3672.0042 38.42 3666.0042 37.1 3661.6042 36.5 3656.1041 35.75 3648.6042 35.375 3639.1042 35.375 3615.8542 35.375 3598.9792 43.625 3588.4791 60.125 3582.9792 68.875 3579.1042 81.25 3576.8542 97.25 3563.1042 79.25 3543.3542 63.625 3517.6042 50.375 3491.8542 37.125 3463.4792 30.5 3432.4791 30.5 3395.2292 30.5 3364.7917 41.8125 3341.1667 64.4375 3317.5417 87.0625 3305.7292 115.375 3305.7292 149.375 3305.7292 186.625 3317.3542 215.5 3340.6042 236 3361.5292 254.45 3388.3267 266.5213 3420.9967 272.2138L3432.1041 273.875 3539.7292 287.375 3545.3014 288.3359C3557.7428 291.0703 3566.2604 297.25 3570.8542 306.875 3573.8542 312.875 3575.3542 321.5 3575.3542 332.75 3575.3542 355.75 3567.1667 372.4375 3550.7917 382.8125 3534.4167 393.1875 3510.9792 398.375 3480.4791 398.375 3445.2292 398.375 3420.2292 388.875 3405.4792 369.875 3398.4077 360.875 3393.4485 348.1097 3390.6016 331.5791L3389.3542 323 3326.3542 323 3326.8017 332.6992C3329.8117 377.0247 3345.725 408.2292 3374.5417 426.3125 3405.4167 445.6875 3441.2292 455.375 3481.9792 455.375ZM2347.1042 443.75L2347.1042 44 2278.4791 44 2278.4791 443.75 2347.1042 443.75ZM2623.1458 454.625C2680.1458 454.625 2718.6458 434.75 2738.6458 395 2748.5458 375.425 2753.9908 348.2563 2754.9808 313.4938L2755.1458 301.625 2755.1458 44 2686.5208 44 2686.5208 297.125 2686.2989 307.3342C2685.4112 327.1709 2681.8601 343.5179 2675.6458 356.375 2663.6458 381.375 2641.8959 393.875 2610.3958 393.875 2594.3958 393.875 2581.2708 392.25 2571.0208 389 2552.5208 383.5 2536.2708 372.5 2522.2708 356 2511.0208 342.75 2503.7083 329.0625 2500.3333 314.9375 2497.4405 302.8304 2495.7874 286.2691 2495.3742 265.2538L2495.2708 254.375 2495.2708 44 2427.7708 44 2427.7708 445.625 2491.8959 445.625 2491.8959 388.625 2499.0736 397.127C2515.9447 416.2402 2533.6771 430.2813 2552.2708 439.25 2573.5209 449.5 2597.1458 454.625 2623.1458 454.625ZM3097.5625 594.875L3108.7016 594.6298C3152.5832 592.6683 3188.3702 578.9375 3216.0625 553.4375 3246.0625 525.8125 3261.0625 487 3261.0625 437 3261.0625 394 3247.6875 356.5625 3220.9375 324.6875 3195.9708 294.9375 3158.482 279.0708 3108.4708 277.0875L3097.5625 276.875 2924.3125 276.875 2924.3125 44 2849.6875 44 2849.6875 594.875 3097.5625 594.875ZM2032.8125 398.375C1991.5625 398.375 1961.5625 382.625 1942.8125 351.125 1924.0625 319.625 1914.6875 281.625 1914.6875 237.125 1914.6875 194.375 1924.0625 158.75 1942.8125 130.25 1961.5625 101.75 1991.3125 87.5 2032.0625 87.5 2076.8125 87.5 2107.5 104.4375 2124.125 138.3125 2140.75 172.1875 2149.0625 209.875 2149.0625 251.375 2149.0625 288.875 2143.0625 319.375 2131.0625 342.875 2112.0625 379.875 2079.3125 398.375 2032.8125 398.375ZM3573.4792 248.375L3568.2442 245.33C3560.8842 241.41 3552.0042 238.05 3541.6042 235.25 3532.9375 232.9167 3524.382 231.0278 3515.9375 229.5833L3503.3542 227.75 3462.4791 222.5 3452.3542 220.9923C3432.8542 217.7474 3417.8542 213.125 3407.3542 207.125 3386.6042 195.375 3376.2292 176.625 3376.2292 150.875 3376.2292 131.375 3383.3542 116 3397.6042 104.75 3411.8542 93.5 3428.7292 87.875 3448.2292 87.875 3471.9792 87.875 3494.9792 93.375 3517.2292 104.375 3552.2292 121.4083 3570.8958 148.5683 3573.2292 185.855L3573.4792 194 3573.4792 248.375ZM3072.8125 530.75L2924.3125 530.75 2924.3125 339.875 3072.8125 339.875C3106.3125 339.875 3133.5 347 3154.375 361.25 3175.25 375.5 3185.6875 400.625 3185.6875 436.625 3185.6875 477.125 3170.6875 504.625 3140.6875 519.125 3126.25 525.9062 3107.123 529.7207 3083.3066 530.5684L3072.8125 530.75ZM2347.1042 594.875L2347.1042 518.375 2278.4791 518.375 2278.4791 594.875 2347.1042 594.875Z"  horiz-adv-x="4096" vert-adv-y="1024"  />

      
      <glyph glyph-name="close" unicode="&#xE00E;" d="M84.1444 793.6692L1005.6973-127.8838C1027.6391-149.8255 1027.6391-171.7672 1005.6973-193.709L1005.6973-193.709C983.7556-215.6507 961.8139-215.6507 939.8721-193.709L18.3191 727.844C-3.6226 749.7857-3.6226 771.7275 18.3191 793.6692L18.3191 793.6692C40.2609 815.611 62.2026 815.611 84.1444 793.6692ZM1005.6973 727.844L84.1444-193.709C62.2026-215.6507 40.2609-215.6507 18.3191-193.709L18.3191-193.709C-3.6226-171.7672-3.6226-149.8255 18.3191-127.8838L939.8721 793.6692C961.8139 815.611 983.7556 815.611 1005.6973 793.6692L1005.6973 793.6692C1027.6391 771.7275 1027.6391 749.7857 1005.6973 727.844Z"  horiz-adv-x="1024" vert-adv-y="1024"  />

      
      <glyph glyph-name="error" unicode="&#xE00F;" d="M512 812C229.2571 812 0 582.7429 0 300 0 17.2571 229.2571-212 512-212 794.7429-212 1024 17.2571 1024 300 1023.8857 582.8571 794.7429 812 512 812ZM736.2286 144.8C755.3143 125.7143 755.3143 94.8571 736.2286 75.7714 717.1429 56.6857 686.2857 56.8 667.2 75.8857L512 231.0857 356.6857 75.7714C337.6 56.8 306.7429 56.8 287.6571 75.7714 268.5714 94.8571 268.5714 125.7143 287.6571 144.8L442.9714 300.1143 287.6571 455.3143C268.5714 474.4 268.5714 505.2571 287.6571 524.3429 306.7429 543.3143 337.6 543.3143 356.6857 524.3429L512 369.0286 667.3143 524.3429C686.2857 543.3143 717.2571 543.3143 736.3429 524.3429 755.4286 505.2571 755.4286 474.4 736.3429 455.3143L581.0286 300 736.2286 144.8 736.2286 144.8Z"  horiz-adv-x="1024" vert-adv-y="1024"  />

      
      <glyph glyph-name="up-outlined" unicode="&#xE010;" d="M512 550.7356C523.3663 550.7356 534.2309 546.0547 542.0381 537.7939L542.0381 537.7939 883.5244 183.2083C900.1585 165.7591 900.1585 138.3226 883.5244 120.8735 875.69 112.6601 864.8369 108.0088 853.4863 108 842.1356 108.0088 831.2826 112.6601 823.4481 120.8735L823.4481 120.8735 512 444.256 200.5519 120.8735C194.2843 114.3028 186.0849 110.0118 177.2442 108.5537L170.5137 108C159.1631 108.0088 148.31 112.6601 140.4756 120.8735 123.8415 138.3226 123.8415 165.7591 140.4756 183.2083 151.565 194.8411 265.3937 313.0363 481.9619 537.7939 489.7691 546.0547 500.6337 550.7356 512 550.7356L512 550.7356Z"  horiz-adv-x="1024" vert-adv-y="1024"  />

      
      <glyph glyph-name="header-platforms" unicode="&#xE011;" d="M925.1635 594.4285L574.8597 796.9479C542.0187 817.0174 500.0552 817.0174 465.3898 796.9479L118.735 594.4285C85.894 574.359 64 539.6935 64 499.5546L64 98.1648C64 59.8503 84.0695 23.3604 118.735 3.2909L465.3898-197.404C481.8102-206.5265 501.8797-212 520.1247-212 538.3697-212 558.4392-206.5265 574.8597-197.404L921.5145 5.1154C954.3555 25.1849 976.2494 59.8503 976.2494 98.1648L978.0739 499.5546C979.8984 539.6935 958.0045 576.1835 925.1635 594.4285ZM830.2895 437.5216L562.0882 280.6147 562.0882-9.4806C562.0882-29.5501 545.6677-45.9706 525.5982-45.9706 505.5287-45.9706 489.1082-29.5501 489.1082-9.4806L489.1082 278.7902 222.7314 433.8726C204.4864 444.8196 199.0129 466.7136 209.9599 483.1341 220.9069 501.3791 242.8009 506.8526 259.2214 495.9056L525.5982 340.8232 793.7996 497.7301C812.0445 508.6771 833.9385 501.3791 843.061 484.9586 854.008 470.3626 848.5345 446.6441 830.2895 437.5216Z"  horiz-adv-x="1024" vert-adv-y="1024"  />

      
      <glyph glyph-name="header-contact" unicode="&#xE012;" d="M310.3553 130.6179C291.3891 132.0979 272.5586 134.9811 254.0186 139.244 227.4668 123.5316 196.3752 111.159 161.4506 102.4128 119.893 92.0068 72.7491 86.7271 21.3321 86.7271 11.7441 86.7271 3.3348 93.1259 0.776 102.3662-1.7828 111.6064 2.1377 121.4186 10.3594 126.3515 56.59 154.0898 88.5748 179.6817 111.2869 207.3534 80.022 232.3653 53.9569 262.5502 35.2913 295.6216 11.866 336.9859 0 381.5366 0 428.0406 0 468.7449 9.1861 508.2159 27.3317 545.3671 44.6641 580.9584 69.5093 612.8898 101.0808 640.2549 132.4123 667.42 168.8768 688.7321 209.4212 703.5846 251.2254 718.917 295.6028 726.6899 341.3135 726.6899 387.0242 726.6899 431.4016 718.917 473.2058 703.5912 513.7501 688.7321 550.1947 667.42 581.5462 640.2616 610.2778 615.363 633.4165 586.6714 650.4488 554.8665 611.3601 552.0503 572.8554 543.7934 536.0488 530.3346 490.6381 513.6689 449.7272 489.7503 414.4559 459.1788 378.518 428.0406 350.1996 391.5427 330.2808 350.7117 309.3153 307.7276 298.6493 261.9636 298.6493 214.7196 298.6222 186.2778 302.5622 157.9712 310.3553 130.6179L310.3553 130.6179ZM1013.5811-86.9695C967.3438-59.2244 935.3656-33.6392 912.6536-5.9675 943.9184 19.0444 969.9836 49.2293 988.6492 82.3007 1012.0478 123.6649 1023.9138 168.2157 1023.9138 214.7196 1023.9138 255.4239 1014.7277 294.895 996.5821 332.0462 979.1964 367.6641 954.3778 399.5956 922.8063 426.9606 891.4748 454.1257 855.0103 475.4378 814.466 490.2903 772.7151 505.5961 728.3377 513.3689 682.627 513.3689 636.9163 513.3689 592.5389 505.5961 550.7346 490.2703 510.1903 475.4112 473.7458 454.0991 442.3943 426.9406 410.8228 399.5689 385.9776 367.6374 368.6452 332.0462 350.5263 294.9216 341.3135 255.4506 341.3135 214.7196 341.3135 173.9887 350.4996 134.5443 368.6452 97.3931 386.0309 61.7752 410.8494 29.8437 442.4209 2.4787 473.7525-24.6864 510.217-45.9985 550.7613-60.851 592.5655-76.1834 636.943-83.9497 682.6536-83.9497 712.0418-83.9759 741.3383-80.6705 769.9819-74.0969 796.5337-89.8093 827.6252-102.1819 862.5498-110.9281 904.1074-121.3341 951.2514-126.6138 1002.6684-126.6138 1012.2564-126.6138 1020.6657-120.215 1023.2244-110.9747 1025.7832-101.7345 1021.8628-91.9224 1013.6411-86.9895L1013.5811-86.9695Z"  horiz-adv-x="1024" vert-adv-y="1024"  />

      
      <glyph glyph-name="header-jobs" unicode="&#xE013;" d="M1009.3387 250.4781L803.966 250.4781 804.3669 162.9951 731.3124 162.9951 730.9115 250.4781 293.3634 250.4781 293.7643 162.9951 220.7098 162.9951 220.3089 250.4781 0 250.4781 0-83.9812C0-123.2524 30.6615-155.0879 68.4843-155.0879L955.5157-155.0879C973.6789-155.0879 991.0981-147.5963 1003.9414-134.2612 1016.7847-120.9262 1024-102.8399 1024-83.9812L1024 250.4305C1019.1129 250.4543 1014.2258 250.4702 1009.3387 250.4781L1009.3387 250.4781ZM14.6613 311.7732L220.4005 311.7732 220.6525 332.4666C220.7841 342.878 228.9508 351.2461 238.9791 351.2452L275.3919 351.2452C280.2923 351.2456 284.9888 349.2082 288.4324 345.5881 291.876 341.968 293.7797 337.0667 293.7185 331.979L293.4779 311.7613 730.8313 311.7613 731.0833 332.4547C731.2149 342.8661 739.3816 351.2342 749.4099 351.2333L785.8112 351.2333C790.7117 351.2337 795.4082 349.1963 798.8517 345.5762 802.2953 341.9561 804.1991 337.0548 804.1378 331.9671L803.8858 311.7494 1023.8053 311.7494 1023.8053 489.6528C1023.667 531.4851 991.0403 565.3611 950.7508 565.5047L804.6991 565.5047 804.6991 679.2825C804.5608 721.1147 771.934 754.9908 731.6446 755.1343L292.3554 755.1343C252.066 754.9908 219.4392 721.1147 219.3009 679.2825L219.3009 565.5047 73.1919 565.5047C32.9025 565.3611 0.2757 531.4851 0.1374 489.6528L0.1374 311.8208C4.9787 311.797 9.82 311.7812 14.6613 311.7732L14.6613 311.7732ZM293.3061 679.1517L293.4321 679.2825 730.5679 679.2825 730.6939 679.1517 730.6939 565.5047 293.3061 565.5047 293.3061 679.1517Z"  horiz-adv-x="1024" vert-adv-y="1024"  />

      
      <glyph glyph-name="header-ce" unicode="&#xE014;" d="M628.3636-142.1818C647.6434-142.1818 663.2727-157.8111 663.2727-177.0909 663.2727-196.3707 647.6434-212 628.3636-212L418.9091-212C399.6293-212 384-196.3707 384-177.0909 384-157.8111 399.6293-142.1818 418.9091-142.1818L628.3636-142.1818ZM523.6364 812C742.144 812 919.2727 634.8713 919.2727 416.3636 919.2727 265.184 834.4669 133.7862 709.8182 67.2029L709.8182-25.8182C709.8182-51.5245 688.9791-72.3636 663.2727-72.3636L558.5455-72.3636 558.5222 177.1665 679.9825 298.5804 682.3564 301.2335C693.6528 315.1103 692.6276 335.2817 679.9825 347.9418L679.9825 347.9418C673.4352 354.5167 664.5525 358.1976 655.2902 358.1976 646.0278 358.1976 637.1452 354.5167 630.5978 347.9651L630.5978 347.9651 523.6364 240.9804 416.6749 347.9651 414.0218 350.3622C399.6153 362.2599 378.3949 360.7048 365.8767 346.8339 353.3586 332.9629 353.9816 311.6948 367.2902 298.5804L367.2902 298.5804 488.7273 177.1898 488.7273-72.3636 384-72.3636C358.2937-72.3636 337.4545-51.5245 337.4545-25.8182L337.4545 67.1796C212.8058 133.7862 128 265.1607 128 416.3636 128 634.8713 305.1287 812 523.6364 812Z"  horiz-adv-x="1024" vert-adv-y="1024"  />

      
      <glyph glyph-name="header-sp" unicode="&#xE015;" d="M817.1656 225.8793C817.1656 244.7167 810.7609 260.9168 797.5747 275.2332L411.7851 660.2693C398.2222 673.8322 379.3848 685.5114 356.78 695.3068 333.4216 705.1022 312.7005 709.6232 293.8631 709.6232L69.3216 709.6232C50.4842 709.6232 34.284 702.465 20.7211 688.9021 7.1582 675.3392 0 659.139 0 640.3016L0 416.5136C0 397.6762 4.521 376.2016 14.3164 353.5967 24.1118 330.2384 35.0375 312.1545 49.3539 298.5916L435.1435-87.198C448.7064-100.7609 464.9065-106.7889 483.7439-106.7889 502.5813-106.7889 518.7815-100.3841 533.0979-87.198L797.5747 177.2788C810.0074 190.8418 817.1656 207.0419 817.1656 225.8793L817.1656 225.8793 817.1656 225.8793ZM221.1508 487.7189C207.5879 474.156 191.3878 467.7512 172.5504 467.7512 153.713 467.7512 137.5129 474.156 123.95 487.7189 110.387 501.2818 103.9823 517.4819 103.9823 536.3193 103.9823 555.1567 110.387 571.3568 123.95 584.9198 137.5129 598.4827 153.713 604.8874 172.5504 604.8874 191.3878 604.8874 207.5879 598.4827 221.1508 584.9198 234.7138 571.3568 240.7417 555.1567 240.7417 536.3193 241.872 517.1052 234.7138 501.2818 221.1508 487.7189L221.1508 487.7189 221.1508 487.7189ZM1004.4091 275.61L618.6196 660.2693C605.0567 673.8322 586.2193 685.5114 563.6144 695.3068 540.2561 705.1022 519.535 709.6232 500.6976 709.6232L379.3848 709.6232C398.2222 709.6232 419.6968 705.1022 442.3017 695.3068 465.66 685.5114 483.7439 674.5857 497.3068 660.2693L883.0964 275.61C896.6593 261.2936 903.064 245.0934 903.064 226.256 903.064 207.4186 896.6593 191.2185 883.0964 177.6556L630.2987-75.8956C641.2244-86.8212 651.0199-94.7329 658.9316-100.0074 666.8433-105.2819 677.7689-107.1656 690.5784-107.1656 709.4157-107.1656 725.6159-100.7609 739.9323-87.198L1004.4091 178.0323C1017.972 191.5952 1024 207.7954 1024 226.6328 1024 245.4702 1017.5953 260.9168 1004.4091 275.61L1004.4091 275.61 1004.4091 275.61Z"  horiz-adv-x="1024" vert-adv-y="1024"  />

      
      <glyph glyph-name="header-doc" unicode="&#xE016;" d="M969.4962 755.1111L634.9415 755.1111C567.019 755.1111 512 700.0918 512 632.1693 512 700.0918 456.9804 755.1111 389.0578 755.1111L54.6064 755.1111C24.4645 755.1111 0 730.6466 0 700.5047L0-37.1465C0-67.2884 24.4645-91.7529 54.6064-91.7529L399.9997-91.7529C418.1675-135.727 461.5223-166.5915 512-166.5915 562.4771-166.5915 605.8319-135.727 623.9996-91.7529L969.3929-91.7529C999.5349-91.7529 1024-67.2884 1024-37.1465L1024 700.5047C1024.1026 730.6466 999.6381 755.1111 969.4962 755.1111ZM402.2707 109.2277C402.2707 89.8212 386.5804 74.1309 367.174 74.1309L115.5096 74.1309C96.1032 74.1309 80.4129 89.8212 80.4129 109.2277 80.4129 128.6341 96.1032 144.3244 115.5096 144.3244L367.174 144.3244C386.5804 144.3244 402.2707 128.6341 402.2707 109.2277L402.2707 109.2277ZM402.2707 322.0791C402.2707 302.6727 386.5804 286.9824 367.174 286.9824L115.5096 286.9824C96.1032 286.9824 80.4129 302.6727 80.4129 322.0791 80.4129 341.4856 96.1032 357.1764 115.5096 357.1764L367.174 357.1764C386.5804 357.2791 402.2707 341.4856 402.2707 322.0791L402.2707 322.0791ZM402.2707 524.7113C402.2707 505.3048 386.5804 489.6145 367.174 489.6145L115.5096 489.6145C96.1032 489.6145 80.4129 505.3048 80.4129 524.7113 80.4129 544.1177 96.1032 559.808 115.5096 559.808L367.174 559.808C386.5804 559.808 402.2707 544.1177 402.2707 524.7113L402.2707 524.7113ZM937.2897 133.7954C919.5349 116.0405 890.8381 116.0405 873.1865 133.7954L793.8059 213.176C772.6447 202.4405 748.6963 196.3502 723.3028 196.3502 637.3157 196.3502 567.6383 266.0275 567.6383 352.0146 567.6383 438.0016 637.419 507.679 723.406 507.679 809.393 507.679 879.0704 438.0016 879.0704 352.0146 879.0704 324.4533 871.8446 298.4404 859.2511 276.0404L937.2897 198.0018C954.9413 180.247 954.9413 151.5502 937.2897 133.7954L937.2897 133.7954Z"  horiz-adv-x="1024" vert-adv-y="1024"  />

      
      <glyph glyph-name="header-api" unicode="&#xE017;" d="M512-60.8381C487.619-60.8381 465.6762-55.9619 443.7333-43.7714L78.019 146.4 26.819 119.581C-7.3143 102.5143-7.3143 51.3143 26.819 34.2476L477.8667-202.2476C487.619-207.1238 499.8095-209.5619 512-209.5619 524.1905-209.5619 536.381-207.1238 546.1333-202.2476L997.181 34.2476C1031.3143 51.3143 1031.3143 102.5143 997.181 119.581L945.981 146.4 580.2667-43.7714C558.3238-55.9619 536.381-60.8381 512-60.8381ZM997.181 343.8857C965.1262 360.6763 926.863 360.6244 894.8539 343.7469L811.8857 300 811.8857 300 731.4286 258.5524 580.2667 178.0952C558.3238 168.3429 536.381 161.0286 512 161.0286 487.619 161.0286 465.6762 165.9048 443.7333 178.0952L292.5714 258.5524 212.1143 300 78.019 370.7048 26.819 343.8857C-7.3143 326.819-7.3143 275.619 26.819 258.5524L78.019 231.7333 156.0381 190.2857 475.4286 22.0571C485.181 17.181 497.3714 14.7429 509.5619 14.7429 521.7524 14.7429 533.9429 17.181 543.6952 22.0571L863.0857 190.2857 941.1048 231.7333 992.3048 258.5524C1031.3143 275.619 1031.3143 324.381 997.181 343.8857ZM997.181 565.7524L546.1333 802.2476C541.2571 804.6857 536.381 807.1238 529.0667 809.5619 524.1905 812 516.8762 812 512 812 507.1238 812 499.8095 812 494.9333 809.5619 490.0571 807.1238 482.7429 807.1238 477.8667 802.2476L26.819 565.7524C-7.3143 548.6857-7.3143 497.4857 26.819 480.419L78.019 453.6 156.0381 412.1524 290.1333 341.4476 368.1524 300 475.4286 243.9238C485.181 239.0476 497.3714 236.6095 509.5619 236.6095 521.7524 236.6095 533.9429 239.0476 543.6952 243.9238L650.9714 300 728.9905 341.4476 863.0857 412.1524 941.1048 453.6 992.3048 480.419C1031.3143 497.4857 1031.3143 548.6857 997.181 565.7524ZM529.0667 803.1619C516.8762 809.5619 504.6857 809.5619 494.9333 803.1619 499.8095 809.5619 507.1238 809.5619 512 809.5619 516.8762 809.5619 524.1905 809.5619 529.0667 803.1619L529.0667 803.1619Z"  horiz-adv-x="1024" vert-adv-y="1024"  />

      
      <glyph glyph-name="header-api-change" unicode="&#xE018;" d="M512 812C794.7698 812 1024 582.7698 1024 300 1024 17.2302 794.7698-212 512-212 229.2302-212 0 17.2302 0 300 0 582.7698 229.2302 812 512 812ZM647.8954 468.2951C633.0989 453.4987 632.1838 429.8066 645.7948 413.9129L756.7575 302.5496 645.3942 191.1864C633.9624 181.3965 628.9829 166.0248 632.5029 151.3913 636.023 136.7578 647.4485 125.3323 662.0819 121.8123 676.7154 118.2923 692.0871 123.2718 701.877 134.7036L841.2814 274.1079C848.9182 281.5761 853.2562 291.7849 853.3324 302.4662 853.4066 313.1474 849.2128 323.4164 841.6819 330.9913L702.2776 470.3957C686.3839 484.0067 662.6918 483.0916 647.8954 468.2951ZM537.327 478.1398C527.6268 473.7033 520.0966 465.5814 516.4052 455.5739L413.4543 177.5664C407.4571 163.9711 409.4782 148.1731 418.7048 136.5253 427.9313 124.8776 442.8473 119.294 457.4545 122.0201 472.0616 124.7461 483.9597 135.3337 488.3641 149.5253L591.315 427.5328C595.0879 437.4664 594.7596 448.492 590.4022 458.1835 586.0448 467.8749 578.0154 475.4381 568.0809 479.2086 558.0962 482.961 547.0272 482.5764 537.327 478.1398ZM322.1204 470.3957L182.3154 330.9913C166.7837 315.3669 166.7837 290.1329 182.3154 274.5085L321.7198 135.1042C337.6135 121.4932 361.3056 122.4083 376.102 137.2047 390.8985 152.0012 391.8136 175.6933 378.2026 191.587L267.6405 302.5496 378.6032 413.9129C394.1349 429.5373 394.1349 454.7713 378.6032 470.3957 362.9788 485.9274 337.7448 485.9274 322.1204 470.3957Z"  horiz-adv-x="1024" vert-adv-y="1024"  />

      
      <glyph glyph-name="header-api-build" unicode="&#xE019;" d="M168.0746-105.1308L168.0746-43.6639 711.594-43.6639C791.0516-43.6639 855.6763 20.9608 855.6763 100.6675L855.6763 643.9254 917.3923 643.9254C976.2258 643.9254 1024 596.4003 1024 537.5668L1024-105.1308C1024-163.9643 976.2258-211.7509 917.3923-211.7509L274.4332-211.7509C215.5997-211.7509 168.0746-163.9767 168.0746-105.1308ZM0 100.6551L0 743.3526C0 781.3254 30.6746 812 68.6474 812L711.594 812C749.3053 812 780.2414 781.3254 780.2414 743.3526L780.2414 100.6551C780.2414 62.6823 749.3177 31.7586 711.594 31.7586L68.6474 31.7586C30.6746 31.7586 0 62.6947 0 100.6551Z"  horiz-adv-x="1024" vert-adv-y="1024"  />

      
      <glyph glyph-name="header-crypto" unicode="&#xE01A;" d="M1024-73.974C1024-88.2589 1021.5565-101.604 1016.6696-114.0092 1011.7827-126.4145 1004.8282-137.3161 995.8062-146.7141 986.7841-156.112 976.2584-163.4424 964.2291-168.7053 952.1997-173.9681 939.0426-176.5995 924.7577-176.5995L106.0088-176.5995C91.7239-176.5995 78.1909-173.9681 65.4097-168.7053 52.6285-163.4424 41.351-156.112 31.5771-146.7141 21.8032-137.3161 14.0969-126.4145 8.4581-114.0092 2.8194-101.604 0-88.2589 0-73.974L0 488.7749C0 517.3447 9.9618 541.5913 29.8855 561.515 49.8091 581.4386 74.0558 591.4005 102.6256 591.4005L921.3744 591.4005C949.9442 591.4005 974.1909 581.4386 994.1145 561.515 1014.0382 541.5913 1024 517.3447 1024 488.7749L1024 335.4005 768 335.4005C739.4303 335.4005 715.1836 325.6266 695.2599 306.0789 675.3363 286.5311 665.3744 262.4724 665.3744 233.9027 666.1263 214.3549 670.2614 197.0627 677.7797 182.026 683.7944 169.2448 693.7562 157.5913 707.6652 147.0657 721.5742 136.5399 741.6858 131.2771 768 131.2771L1024 131.2771 1024-73.974 1024-73.974ZM870.6256 643.2771L358.6256 643.2771C399.2247 664.3285 437.5683 684.6281 473.6564 704.1758 505.2335 720.7162 536.4347 737.2565 567.2599 753.7969 598.0852 770.3373 622.1439 783.1185 639.4361 792.1405 665.7504 806.4254 689.2452 813.004 709.9207 811.8762 730.5962 810.7485 748.0764 807.1773 762.3612 801.1626 778.9016 792.8924 793.1865 781.9908 805.2159 768.4577L870.6256 643.2771ZM717.2511 233.9027C717.2511 248.1875 722.138 260.2169 731.9119 269.9908 741.6858 279.7646 753.7151 284.6516 768 284.6516 782.2849 284.6516 794.3142 279.7646 804.0881 269.9908 813.862 260.2169 818.7489 248.1875 818.7489 233.9027 818.7489 219.6178 813.862 207.4005 804.0881 197.2507 794.3142 187.1009 782.2849 182.026 768 182.026 753.7151 182.026 741.6858 187.1009 731.9119 197.2507 722.138 207.4005 717.2511 219.6178 717.2511 233.9027Z"  horiz-adv-x="1024" vert-adv-y="1024"  />

      
      <glyph glyph-name="header-api-status" unicode="&#xE01B;" d="M375.9329 682.9214C392.5886 717.7766 441.7545 715.1108 455.876 681.3688L457.9905 675.0931 618.9641 58.9334 715.282 247.3575C721.8458 260.1999 734.2219 268.8766 748.2557 270.8451L754.3595 271.2706 980.1143 271.2706C1004.3517 271.2706 1024 251.6223 1024 227.3849 1024 205.1673 1007.49 186.8058 986.0693 183.8998L980.1143 183.4992 781.1657 183.5103 644.7055-83.5892C627.3736-117.5 579.1416-114.2365 565.2493-80.903L563.1675-74.7099 403.339 536.8196 313.8022 349.3284C307.4243 335.9815 294.8346 326.8785 280.4613 324.8113L274.2051 324.3642 43.8857 324.3642C19.6483 324.3642 0 344.0125 0 368.25 0 390.4676 16.51 408.8291 37.9307 411.735L43.8857 412.1357 246.5207 412.1841 375.9329 682.9214Z"  horiz-adv-x="1024" vert-adv-y="1024"  />

      
      <glyph glyph-name="left-outlined" unicode="&#xE01E;" d="M261.2644 300C261.2644 288.6337 265.9453 277.7691 274.2061 269.9619L274.2061 269.9619 628.7917-71.5244C646.2409-88.1585 673.6774-88.1585 691.1265-71.5244 699.3399-63.69 703.9912-52.8369 704-41.4863 703.9912-30.1356 699.3399-19.2826 691.1265-11.4481L691.1265-11.4481 367.744 300 691.1265 611.4481C697.6972 617.7157 701.9882 625.9151 703.4463 634.7558L704 641.4863C703.9912 652.8369 699.3399 663.69 691.1265 671.5244 673.6774 688.1585 646.2409 688.1585 628.7917 671.5244 617.1589 660.435 498.9637 546.6063 274.2061 330.0381 265.9453 322.2309 261.2644 311.3663 261.2644 300L261.2644 300Z"  horiz-adv-x="1024" vert-adv-y="1024"  />

      
      <glyph glyph-name="search" unicode="&#xE020;" d="M756.565 114.741C758.699 113.248 760.789 111.584 762.667 109.621L1004.33-132C1020.586-148.256 1020.842-175.52 1004.202-192.16 996.2565-200.1947 985.4357-204.7303 974.1358-204.7624 962.836-204.7941 951.9897-200.3197 943.999-192.33L702.336 49.332C700.4669 51.2007 698.7809 53.2441 697.301 55.434 621.0684-7.2785 525.3799-41.4929 426.667-41.334 191.019-41.333 0 149.685 0 385.333 0 620.981 191.019 812 426.667 812 662.315 812 853.333 620.981 853.333 385.333 853.333 282.635 817.067 188.384 756.565 114.741ZM426.667 44C615.1803 44 768.0005 196.8202 768.0005 385.3335 768.0005 573.8468 615.1803 726.667 426.667 726.667 238.1537 726.667 85.3335 573.8468 85.3335 385.3335 85.3335 196.8202 238.1537 44 426.667 44Z"  horiz-adv-x="1024" vert-adv-y="1024"  />

      
      <glyph glyph-name="clear-fill" unicode="&#xE021;" d="M512 748C264.6 748 64 547.4 64 300 64 52.6 264.6-148 512-148 759.4-148 960 52.6 960 300 960 547.4 759.4 748 512 748ZM677.4 129.8L611.4 130.1 512 248.6 412.7 130.2 346.6 129.9C342.2 129.9 338.6 133.4 338.6 137.9 338.6 139.8 339.3 141.6 340.5 143.1L470.6 298.1 340.5 453C339.3 454.5 338.6 456.3 338.6 458.2 338.6 462.6 342.2 466.2 346.6 466.2L412.7 465.9 512 347.4 611.3 465.8 677.3 466.1C681.7 466.1 685.3 462.6 685.3 458.1 685.3 456.2 684.6 454.4 683.4 452.9L553.5 298 683.5 143C684.7 141.5 685.4 139.7 685.4 137.8 685.4 133.4 681.8 129.8 677.4 129.8Z"  horiz-adv-x="1024" vert-adv-y="1024"  />

      

  </font>
</defs>
</svg>
